Netflix Frame Rate Display

Demonstrated on LG OLED55C8, in this video I will show two easy ways to display stream information in Netflix app. How to change the resolution or frame rate of the streamed remote display? Support May 27, 2020 05:14 By default, the native resolution of the remote computer is streamed. As Netflix describes it, this is a "high dynamic range high frame rate test content featuring a day in the life of a welder. Maximum frame rate limited to 60 frames per second Benjamin Jeskin (@BenGeskin), who… After Apple's World Developer Conference (WWDC 2020) keynote, iOS 14 beta, the next OS, was released to developers. For example, the function call frameRate(30) will attempt to refresh 30 times a second. standard ground shipping only. (Control - Shift - Option - D) I have yet to see a stream or playback frame rate other than the original frame rate. Enable frame rate counter shows the frames per second. Netflix India has pricing similar to its primary US market and users will be able to pay as low as Rs 500 to watch shows and movies on a single screen at one time. If your video displays 24 frames every second, we would say your video is 24 fps. Have you ever been next to a. This saves power by reducing memory bandwidth and improves the quality of film playback by reducing video judder caused by the conversion of the film frame rate (24 Hz, for example) on displays running at 60 Hz. 98 is usually chosen instead (see below). This variable frame rate means that even with V-Sync on, the GPU still wants to present a frame that's out of sync with the display. Throw away the VCR, forget about using a DV cam, game recording has never been this easy! Fraps can capture audio and video up to 7680x4800 with custom frame rates from 1 to 120 frames per second! All movies are recorded in outstanding quality. Updated June 2019. That's the fastest the SL servers will feed discreet frame information to your viewer under ideal circumstances. Not like it stalls to buffer but like a frame was cut out and motion isn't. 11 Reply by Chainik 17-01-2014 01:35:51. Hulu HD (1080p25 = 1. In my case I wasnt very sure on how to set up the various field for my translation to occur, when I eventually managed by sheer luck to have it setup it is quite easy and confortable, but hey, you should have simply put a quick form to set up the things or to a video explaining what. When you create a new document, the default timeline duration is 10 seconds. 5 Brands Taking Personalized Marketing To The Next Level. Frame rate mode : Constant. We talked about this previously already. 054 Stream size : 593 MiB (90%) Title : GOPI SAHI Writing library : x264 core 157 r2935 545de2f. Made in the USA. The result is that most of Netflix's content does not play-back smoothly. The following table lists the bandwidths we recommend for a smooth user experience at typical display resolutions with a frame rate of 30 frames per second (fps). Frame rates greater than 30fps will be presented natively. Plus, neither the Netflix app on windows nor the web app are able to set an appropriate display refresh rate that fits the frame rate of the content when going into fullscreen mode. If you're not using a hardware surface, consider using pygame. It's pretty embarassing that my TV's built in app can outperform my $500 X1. Has the frame rate matching been fixed for the Netflix app? Otherwise I'd use Kodi with netflix addon but would be cool if it did work though. 004 fps @ 120. When you create a new document, the default timeline duration is 10 seconds. 94, 50, 30, 29. Netflix's decision to reduce video bitrate by a quarter appears to be a compromise. Frame rate from 10. Fps stands for frames per second. Netflix and youtube videos stuttering with PG279Q Gsync Talk about NVIDIA G-SYNC, a variable refresh rate (VRR) technology. Similarly, 60i is shorthand for 60. The Frame’s design-first mentality has already drawn. Measured in Hertz (Hz), the refresh rate counts the number of times the display refreshes every second it is on. vSyncCount so that rendering will occur at an interval related to the display device’s refresh rate (e. 7 msec/icon. if the same bit encoding and (lack of) video compression. Display resolutions. Another user who encountered the same Netflix problem found out that displays with a high refresh rate are prone to stuttering. in Netflix, Amazon Prime Video or Plex. Has the frame rate matching been fixed for the Netflix app? Otherwise I'd use Kodi with netflix addon but would be cool if it did work though. Both 59Hz and 60Hz are translated to 59. It allows manual selection by a user of the desired refresh rate and can automatically switch to the correct refresh rate, in order to accommodate different framerates. 976hz) This 24hz is a nightmare as nothing will play it correctly. 4 million jobs statewide since March is the most in California history. Can I use Netflix and Amazon on the Roamio without needing the monthly Tivo subscription? I know this seems like a silly question but let me explain. If you're not using a hardware surface, consider using pygame. 97hz and opening up SlingTV and Plex to see if the display rate changes, no on screen OSD rate change and my HDTV doesn't display an auto rate change either. 97, 25, 24 and 23. The frame rate should match the delivery frame rate for the IMF and VDM. We have a 16mb cable connection. While playing video in Netflix simultaneously depress the Shift, Crtl, Alt and S keys to show the Netflix Stream manager. Hi there, My TV and roku apps seem to be functioning fine except when I am watching anything in the Netflix app there is an info display in the top left corner that won't go away. This is a collection of video test patterns organized by source resolution and native frame rate. UHD is going to start with 2160p25/30, which means UHD resolution with 25 or 30 full frames (progressive scan). Video Frame Rates (24p, 25p, 30p, 60i) Background Both camcorders and some video capable digital cameras offer not only the ability to select resolution such as 640x480, 1280x720, or 1920x1080 but also offer the ability to select from one of a number of frame rates such as 24, 25, 30 or even 60 frames or "fields" per second. S´equin University of California at Berkeley Abstract We describe an adaptive display algorithm for interactive frame rates during visualization of very complex virtual environments. Although the version I saw wasn’t quite optimal—it turns out no commercial theater in the United States is capable of projecting the movie at the preferred 120 frames per second, in 3D, and at 4K. The streaming leader continues to acquire and curate new content every month in addition to bolstering its slate of original programming – and there appears to be no slowing down. You can choose to use full screen or window region to record your desktop activies to creat software or program tutorials or website demos. Sebastian Anthony - May 14, 2015 10:03 am UTC. Press “F9” key (OTHERS/CHECK) 4. Has the frame rate matching been fixed for the Netflix app? Otherwise I'd use Kodi with netflix addon but would be cool if it did work though. Meaning that if you move your mouse it will take 66ms before this action is reflected on your screen. The only requirement is a strong internet connection and that's all. Roku provides the simplest way to stream entertainment to your TV. You can also use the Netflix Windows app, though. With it you can simply see what the console is capable of. Watching Netflix on Windows 10? Stick With IE, Edge, Microsoft Says. Don't maximise the player window when the title is playing, but click to make it the active window and then press Ctrl Shift Alt D. 3 August 18, 2018 Fixed the list of subtitle menu ver. The older I get, the more my Friday nights involve watching Netflix at home with a bottle of Maker's Mark and a box of Oreos. Variable Refresh Rate (VRR) One of the highlights from the HDMI 2. Note: Changes to the Frame rate target must be done outside of the game, i. A financial advisor drags his family from Chicago to the Missouri Ozarks, where he must launder money to appease a drug boss. Frame calculation: 60 seconds x 24 fps = 1440 frames. CIStud writes Barry Sonnenfeld, director of the "Men in Black" series, "Get Shorty" and most recently Netflix's "Series of Unfortunate Events", says 8K is "only good for sports" and High Dynamic Range (HDR) is "stupid" and "a waste. As of now the highest frame rate one can achieve is 60fps, although there is no specific setting that says ‘60fps. A refresh rate is the number of times your monitor updates with new images each second. 42 GiB (86%) Writing library : x264 core 146 r2538 121396c. You should cap your FPS at just over what your monitor can display. if the same bit encoding and (lack of) video compression. The first season of Netflix's new animated fantasy show The Dragon Prince has been generally well received by the public, but one aspect of the show seems to have bugged nearly everyone: the. But they are wrong! From the extensive feedback from the community, we learned that anyone who actually watched at least 3 movies at high frame rate would never ever want to watch anything in the obsolete 24 fps standard. Explanation of the new Frame Rate Matching feature on the Amazon Fire TV and how it works Posted by Elias Saba on August 3, 2018 — 49 Comments Software update version 6. If the video plays at 25 fps (e. When you first log into your profile you’ll be faced with your home page. A frame rate of 60fps is the target for smooth performance, giving you a time budget of 16. For one of the best 4K gaming TVs with premium performance, look no farther than the Samsung Q60 QLED TV, our favorite TV for gaming. Connect to Netflix using your favorite devices. I have been seeing. It is also able to run the display at lower refresh rates during full screen playback of film based content. Automatic display mode matching to video frame rate for Nvidia Shield TV. Due to technical limitations, Netflix will no longer be supported on some devices Blu-ray players beginning on December 1st, 2019. BoJack Horseman. Typical display devices have refresh rates of 60Hz, 75Hz and higher. The Netflix app in many TVs is frame rate locked to 60Hz and while that may be caused by limitations in the TVs, there are also examples (game consoles) of the Netflix app forcing all content into HDR, which is a big no-no. 25fps and 30fps content uses frame rate doubling to display at 50Hz and 60Hz when available, matching its original appearance while preserving a fluid user interface. It allows manual selection by a user of the desired refresh rate and can automatically switch to the correct refresh rate, in order to accommodate different framerates. Local apple store changed my appletv for a new one. 2 I believe). Now that there's stock in the UK I'm considering getting one. I've tried different U9 settings, but to no avail. Coronavirus update. 000 FPS Color space : YUV Chroma subsampling : 4:2:0 Bit depth : 8 bits Scan type : Progressive Bits/(Pixel*Frame) : 0. As a bit of background. Introduction. Those browsers provide 1080p streams; others are 720p. I don't understand the relation of video frame rate x display refresh rate. 976hz) This 24hz is a nightmare as nothing will play it correctly. Then press reload Netflix. Since discovering it, it's changed the way I watch stuff on Netflix. I used this before without issues but I'm wondering what can be done to fix this now that this has happened. Netflix users may often feel like the quality of their video streams is out of their control—and, for the most part, it is—but thanks to a few clever Redditors, you can now do some simple. 5 percent increase, from 833 hospitalizations to 1,412, in the same time frame. 1 Running a FPS Test 2. adb shell dumpsys display The information about the frame rate of the device is provided in the attribute "mPhys". Most often this is seen when X-Plane is running and the focus has been switched to another program, such as when alt + tab is used. Since 1927, the standard frame rate for film has been 24 fps (frames per second). 0988 (thank you Acmlm), so we were utterly confused how TVs displayed the games accurately when the two frame rates were different. Please note that when the video is running at 23. I think it could be a very positive change. Arizona has reported a 69. Movies and videos look better, scrolling is more fluid and games play smoothly without distracting artifacts known as tearing that occur when the game is not in sync with the display’s refresh rate. The Frame’s design-first mentality has already drawn. Netflix is the world’s top video streaming service that allows users to watch content on screens ranging from a smartphones to a smart television. Frame rate is generally expressed in frames per second (fps). Curious about the cameras behind Netflix Originals? Here are the cameras Netflix has officially approved — and the series using them. If you’re logged into Netflix and search for “example short” you’ll find a variety of them intended to showcase different frame rates, resolutions, and so on. Main Menu > Settings > Video > Display Frame Rate (switch ON or OFF) You should be able to do this for all RetroArch / Libretro emulators in a similar manner: From Emulation Station, locate the RetroPie screen Select the 'RetroArch' option. Hulu HD (1080p25 = 1. The display boasts a 240Hz refresh rate, DisplayHDR 400 support, and a 0. The Netflix app in many TVs is frame rate locked to 60Hz and while that may be caused by limitations in the TVs, there are also examples (game consoles) of the Netflix app forcing all content into HDR, which is a big no-no. Adjust Display Refresh Rate - big changes in refresh rate, if TV supports it. 3 to the Amazon Fire TV has added the ability to configure the media player so that it adjusts your TVs refresh rate to match the frame rate of the video content being played. Enable frame rate counter shows the frames per second. would be used as the one for then the file size. The company is increasing its audio bitrate up to 640 kbps on devices that support 5. 3 billion in 2019. I have only participated in TA1 and now in CB1 and both had horrible frame rate for me (20 and less). 6/10 Netflix’s best series is also one of its most underrated. Flat-rate shipping on your order. I hate judder and prefer watching content at the original frame rate. Here are the secret Netflix codes that unlock tons of hidden movies and shows Photo: Getty Images As all Netflix users know, the streaming service has very specialised subgenres of movies and TV shows. Advanced users may want to check out the hidden settings menu, from which you can set the minimum bit rate, maximum bit rate, frame rate, and other useful things. The only way to achieve perfect motion clarity (equivalent to a CRT) on a completely flickerless display, is to display sharp, low-persistence frames consecutively with no black periods in between. I still tried streaming for 30 days and really liked some of the original content Netflix had. However, the actual frames per second may differ from the preferred value you set: actual frame rates are always a factor of the maximum refresh rate of the device. The fourth season is highly anticipated. As for DCI 4K resolution (4096 X 2160), it actually commonly doesn’t have a 16:9 aspect ratio and instead uses a 1. The frame is, by and large, locked. Its been suggested that a user friendly auto-detect frame rate should be utilised. if the same bit encoding and (lack of) video compression. Enable frame rate counter shows the frames per second. S1590582799170, via OnePlus 8, Jun 21, 2020 at 3:24 PM: Fortnite is the only game that works at 90hz all other games will run at a maz of 60hz. When the. the World (2019) WEB-DL 720p | MKV | 1 h 44 min | 2. This is at least double the 24 frames per second (fps) standard used in Hollywood. Viewing the frame rate of a webpage in Google Chrome is pretty simple. Changing the time display format does not alter the frame rate of your assets or output—it changes only how frames are numbered for display in After Effects. Film; High definition video with NTSC Compatibility. Select Display Adapter Properties. 940 fps, so we ran those numbers as well. "Following the discussions between Commissioner Thierry Breton and [Netflix chief executive] Reed Hastings, and given the extraordinary challenges raised by the coronavirus, Netflix has decided to begin reducing bitrates across all our streams in Europe for 30. TV Shows are fine and silky smooth, it only seems to happen to the films. Next, on your chrome browser, go to Netflix and search for the Netflix test pattern. In less extreme cases, the game will feel jerky and slow. Ik heb alles al. 054 Stream size : 593 MiB (90%) Title : GOPI SAHI Writing library : x264 core 157 r2935 545de2f. At 15 fps there will be 66ms between every frame. You're going to need is a premium level Netflix 4K subscription. Typical display devices have refresh rates of 60Hz, 75Hz and higher. Has the frame rate matching been fixed for the Netflix app? Otherwise I'd use Kodi with netflix addon but would be cool if it did work though. :) fortunately you can do this by adding a time calculator to your function and for sure you can see your frame rate easily. In Windows Media Center the frame rate would speed up and then slow down, then speed up again, and slow down - every 2 seconds or so. 4 In the Colors section, choose 16 bit. The default rate is 60 frames per second. 1-inch and 6. The original fps of a content is known as its native format. 97hz and opening up SlingTV and Plex to see if the display rate changes, no on screen OSD rate change and my HDTV doesn't display an auto rate change either. Syntax: frameRate(fps) Parameters. Sebastian Anthony - May 14, 2015 10:03 am UTC. Netflix has some titles (The Witcher is one) that are displayed in 24. Hi, I have this strange issue where when watching Netflix in either IE11, Edge or Netflix App in full screen mode the display would sometimes flicker or goes black for a few seconds then back to the video. The G100 EVF is also higher-res, using a similar 3860K-dot electronic viewfinder display as in the high-end G9 camera. The new Limit Frame Rate addition in iOS 14 only gives room to speculations as the final decision rests with Apple. This year, Netflix is doing the same. I get choppy playback and stutter from HD video with Netflix and Amazon. How can I get netflix stats of bitrate, framerate, buffer occupancy etc. This saves power by reducing memory bandwidth and improves the quality of film playback by reducing video judder caused by the conversion of the film frame rate (24 Hz, for example) on displays running at 60 Hz. Even having a generic catch all 60hz rate (which most tv's have by default) doesn't get rid of the stutter. If it’s a 60Hz display then it only supports 60 frames per second. However, if you ask for a lower frame rate, the display. The most common film and video frame rates are 23. But it does it when not recording as well. Try to Reset the Netflix Windows app. Securing these licensing agreements is Netflix's greatest expense, totaling $15. Display aspect ratio : 2. 976 fps, 25 fps, 29. Now I cannot make it work with U9 A7 firmware and Kodi 18 (connected exactly in the same way). The problem is Netflix now record their shows in 24hz (nearly all movies are in 23. 004 hz' scenario, but the stutter has the possibility to be less apparent as the framerate is closer to matching the refresh rate of the display. 25fps and 30fps content uses frame rate doubling to display at 50Hz and 60Hz when available, matching its original appearance while preserving a fluid user interface. 7-inch sizes, will feature a high refresh-rate 120Hz ProMotion display. When the. 42 GiB (86%) Writing library : x264 core 146 r2538 121396c. Frame rate : 25. FPS Limiter 2. Arizona has reported a 69. 940 (60000/1001) FPS Color space : YUV Meridian from Netflix. 976 frames/s when using equipment based on NTSC frame rates) frame rate with progressive scanning (not interlaced). would be used as the one for then the file size. 1 Running a FPS Test 2. For the best picture quality. (Control - Shift - Option - D) I have yet to see a stream or playback frame rate other than the original frame rate. Select Display Adapter Properties. 97fps for NTSC. I switched on the Match Frame Rate option which seemed to make the problem go away but now I noticed whenever I exit a video or app I get a blank black screen for a few seconds. 4 million jobs statewide since March is the most in California history. would be used as the one for then the file size. 976024 which can be used to say that the video is 24 frames per second. Press the "Settings" button to bring out the settings menu and select "Match frame rate (beta)" from the Quest Settings. The display boasts a 240Hz refresh rate, DisplayHDR 400 support, and a 0. Just tried it with Homeland TV show on UK Netflix and it is 24fps. User Panel. 99 per month. Frame Rate Counter is a set of numeric Values which is displayed under the title bar. The gray shade rendering capability of a display device having a frame rate of q frames per display cycle is enhanced by comparing an intensity value representing a gray shade of a current pixel with a respective dither matrix threshold value and providing a pixel on/off signal, storing a plurality of quantization values ranging from 1 to q in a quantization table, outputting p quantization. A financial advisor drags his family from Chicago to the Missouri Ozarks, where he must launder money to appease a drug boss. I couldn't find a Variable in the SDK for frame rate, so, I doubt there will be a gauge available. The motion-to-photon-latency is lower bound by how long a frame is displayed. Once you open up a game, you'll immediately notice the FPS counter at one of the four corners of the display. It will still work even if WATCHOUT renders at another framerate (e. update(rectangle) rather than pygame. A refresh rate is the number of times your monitor updates with new images each second. 3 Custom […]. the World (2019) WEB-DL 720p | MKV | 1 h 44 min | 2. This is 24 FPS slowed down by 99. It's just that ONLY the 24fps are correctly played. Once you see that the higher buffering rate is in effect, move the video slider back to the starting point to restart the video. Choppy/Stutter frame-rate on Netflix/Amazon apps; User Info: Ghostel23. But XDA Forum user chenxiaolong apparently found a workaround and as the photo above shows is now able to reach HD resolutions (e. How is LCD (Liquid Crystal Display ) Frame Rate Control Modulation abbreviated? LFRCM stands for LCD (Liquid Crystal Display ) Frame Rate Control Modulation. With it you can simply see what the console is capable of. This mod from uberhalit unlocks the frame. In the case of 24 fps content every 24th frame is duplicated, so the video effectively freezes every second (for 1/25th of a second). User Panel. 6 ms to fully refresh a 60Hz display, 11. These videos, called Test Patterns on Netflix, are sorted by resolution and frames per second (fps), and display the current bitrate—which directly translates to real-world throughput—in the upper right corner. It is the bare minimum fps number for a decent gameplay. Samsung's smart TV lives up to 'The Frame' moniker with super flat display. of the video would be. I did a quick Google. it shows the language, resolution, and run time. 5 Brands Taking Personalized Marketing To The Next Level. Judder setting doesn't help and my Samsung TV plays the 4K content perfectly. Play the video for few seconds, you'll notice at top right, the maximum resolution goes to 720p. 940 fps, so we ran those numbers as well. Yes there are improvements coming in AMLogic Android Marshmallow Firmware. The company's CEO, Pete Lau, recently confirmed that the OnePlus 8 series will feature a high refresh rate 120Hz display, Qualcomm's flagship Snapdragon 865 SoC, LPDDR5 RAM, and UFS 3. Press the “Settings” button to bring out the settings menu and select “Match frame rate (beta)” from the Quest Settings. 976 (24000/1001) FPS. Anyways if anybody can help me out Id appreciate it. I've recently purchased an RU7400. 120Hz displays have just 8. Video Frame Rates (24p, 25p, 30p, 60i) Background Both camcorders and some video capable digital cameras offer not only the ability to select resolution such as 640x480, 1280x720, or 1920x1080 but also offer the ability to select from one of a number of frame rates such as 24, 25, 30 or even 60 frames or "fields" per second. when many frames are being dropped, the Netflix player adapts and lowers the video bitrate. However, Netflix also offers tests for 59. Enable this and set it to 30 frames per second. VRR reduces or eliminates lag, judder and frame tearing for more fluid and better detailed gameplay. Unless I manually set the refresh rate in the OS display settings most Netflix content looks awful and micro-stutters on my projector. Frame rate : 25. But XDA Forum user chenxiaolong apparently found a workaround and as the photo above shows is now able to reach HD resolutions (e. Features a licensed medallion with black & sky blue conservation quality matting. Would you please help me with any instruction or sample code. But it does it when not recording as well. You can then adjust the frame rate, quality, recording duration, and destination among others. A frame rate of 60fps is the target for smooth performance, giving you a time budget of 16. How to Curate Your Netflix Feed Using Algorithmic Recommendations. Now that there's stock in the UK I'm considering getting one. Yeldo Mar Baselios College - Yeldo Mar Baselios College Is The No. It is usually expressed in frames per second (FPS). 2% % % % Page3%of%31% % Table(ofContents(1% Objective 4%. The term applies equally to film and video cameras, computer graphics, and motion capture systems. Press “F9” key. FPS Limiter 2. You can use the Debug Tool that comes with the SDK to show a performance HUD. 1 versions support 144Hz refresh rates at 1080p, along with audio. Subsequently, the application must be restarted. Plan Premium Country Canada Device Desktop Operating System Windows 10 My Question or Issue Recently I've done a clean uninstall of Spotify because it was taking up a large amount of space on my drive and then reinstalled it. Apparently, 3. Go to the Settings > Apps > Apps & Features Then, scroll down and find the Netflix Apps. update(rectangle) rather than pygame. Press Ctrl+Alt+Shift+S while watching to see the available bitrates. Instead, it's determined by your video card and, depending on the rates it supports, you can change the refresh rate for your display. 3 percent jump as of Saturday. Netflix’s hardware requirements for HDR on PC mean you’ll need Intel’s 7th. The fourth season is highly anticipated. Plan Premium Country Canada Device Desktop Operating System Windows 10 My Question or Issue Recently I've done a clean uninstall of Spotify because it was taking up a large amount of space on my drive and then reinstalled it. Now that there's stock in the UK I'm considering getting one. The Netflix app on the PS3 and Xbox 360 is great, but you can’t easily change accounts without deleting and reinstalling the app. The motion-to-photon-latency is lower bound by how long a frame is displayed. The visual style, a combination of 3D computer animation and cel shading with a reduced frame rate, may be a different matter, however. "And as a result of that, the viewer starts to look at all the details in that frame, because they're not being distracted by 400 other things. 99 Shop Now 65” $799. 3 In the Display Properties dialog, click the Settings tab. Has anyone else been having frame rate issues for Netflix on the Xbox One? It looks like frame drops and judder, but not all the time. This product ships directly from vendor please allow 20 to 25 business days for processing and shipping. For instance, the input frame rate would be 1 / T f i. 3 Custom […]. From here, find the "Frame Rate Limiter" listing under the "Common" subheading and choose an fps limit from the dropdown box. Find out more. 000 FPS Color space : YUV Chroma subsampling :. Use the Multi-controller button to navigate to the Video Shooting 2 tab. on my android device? On laptop (chrome and netflix app) I was able to extract this information by first displaying it using the netflix shortcut cntrl+alt+shift+d and then using the html tag to extract this. When the camera pans, it is a very stuttering choppy movement. To generate the display clock signal, the period of the incoming vertical synchronization signal is measured using the reference clock signal. Nothing seems to be able to fix it. Get Current Sequence Frame Rate. However, to do so, you need to tinker with the experimental flags section of Google Chrome. Similarly, frame rate is 23. The Netflix app in many TVs is frame rate locked to 60Hz and while that may be caused by limitations in the TVs, there are also examples (game consoles) of the Netflix app forcing all content into HDR, which is a big no-no. 97fps for NTSC. Press “F9” key (OTHERS/CHECK) 4. Shop Walmart for the latest TVs, including deals on Smart, LEDs, QLEDs, OLEDs, 4k TVs & curved flat screen TVs from top-rated brands. If using a 120Hz monitor , then 120fps is automatically included (30fps vs 60fps vs 120fps) in supported browsers. Select Screen refresh rate. 3ms in-between frames in which the GPU has to. The frame rate appears in the lower right-hand side of your current view. Some would say that frame rate conversion is not worth efforts and results in almost the same low quality video as image upscaling, often with soap opera effect, which they hate. Right-click the video file, and select Properties from the context menu. From a technical standpoint, the final deliverable for Sparks is on par with the technical specifications of Meridian, captured at a resolution of 4096x2160, frame rate of 59. The resolution always stays at 3840x2160, also if I play 1080p content e. Seriously, Netflix, if you want to be taken seriously technically, don't film everything at 24p and then force pretty much everyone to watch it at 60p! (To save anyone the effort, I know how to change the refresh on the Fire Stick manually but it really shouldn't be necessary when the Fire Stick OS supports automatic frame rate matching. Automatic display mode matching to video frame rate for Nvidia Shield TV. Other interesting stats include the frame rate (usually close to 24 fps), the number of dropped frames and the throughput. So here in this article, I […]. Competitive prices on all banking signs including; banking brochure holders, display frames, rate boards, floor displays, mandatory bank signs and accessories. Our Verdict. 5 mbps to stream Netflix content, although 5 mbps is recommended for HD quality. Hopefully the new Roku firmware 9. 004 hz' scenario, but the stutter has the possibility to be less apparent as the framerate is closer to matching the refresh rate of the display. It's just that ONLY the 24fps are correctly played. Your Brain Has a Frame Rate and it’s Pretty Slow. The System UI comprises of a column of application icons on the left and a graph on the top right, displaying the average frame rate for the System UI itself. GitHub is home to over 50 million developers working together to host and review code, manage projects, and build software together. Many high definition formats can record and play back video at this rate, though 23. This variable frame rate means that even with V-Sync on, the GPU still wants to present a frame that's out of sync with the display. Frame rate is generally expressed in frames per second (fps). The frame rate appears as a hover over display on the top right corner of the webpage, as it is loaded. How to measure your frame rate. Even the earliest 1. So that is 1/30 of second (0. The actual frame rate chosen is usually a factor of the maximum refresh rate of the screen to provide a consistent frame rate. During playback of a video file, my configuration (2. You should cap your FPS at just over what your monitor can display. With FreeSync enabled, the monitor dynamically refreshes the screen in sync with the current game's frame rate. Max Planck Society. Hi BryanWilkins yes i did it before and it was successfully worked! you can add just a simple counter in your function that will be called when a new frame arrived, but there is a problem and it is that you need to calculate how much time it takes to add a new frame. If it was originally a film, Netflix requires the native film frame rate (either 23. Display aspect ratio : 16:9 Frame rate mode : Constant Frame rate : 23. 5 Brands Taking Personalized Marketing To The Next Level. What this means is if you have a high refresh rate display, let's say a 120Hz panel like the one on the OnePlus 8 Pro and if you are watching content shot at a frame rate of 120fps, you will be. The frame rates used for film and TV are standardised by the Society of Motion Picture and Television Editors (SMPTE). Please fix this ASAP. Frame Rate Counter is a set of numeric Values which is displayed under the title bar. Now I cannot make it work with U9 A7 firmware and Kodi 18 (connected exactly in the same way). Have you ever been next to a. Choppy/Stutter frame-rate on Netflix/Amazon apps; User Info: Ghostel23. Netflix Peacemaking, and 2021 Festival HBO Max, Bundles, and Making the Most of. This is especially crucial for those who edit videos as the frame rate of the video can be set to match the frame rate of the display. This applies to content that's mastered at different frame rates, for example 24fps film-based content or other international video content encoded at 60, 59. The screen goes blank for about a second, then it shows few horizontal lines, and it goes. Now, click on "FPS Counter" and choose the position where you want the software to display the frame rate of your game. Netflix also holds numerous international stand-up comics like Russel Peters, John Mulaney, and others. Most popular M-Series TVs. 068 FPS Original frame rate : 30. Price Match Guarantee. This probably won’t arrive until 2015 when TVs will be more affordable. 976024 which can be used to say that the video is 24 frames per second. There, Netflix will display the things you've watched, what you're currently watching, shows that have been saved to you List, Netflix Originals, and recommendations for unrelated TV shows or movies you might be interested in. 976 fps, 25 fps, 29. Enable this and set it to 30 frames per second. Video resolution and frame rate. Note: Selecting the Deinterlace setting causes the frame rate of the selected clips to double. Hi BryanWilkins yes i did it before and it was successfully worked! you can add just a simple counter in your function that will be called when a new frame arrived, but there is a problem and it is that you need to calculate how much time it takes to add a new frame. If it’s a 60Hz display then it only supports 60 frames per second. Here are the top dramas on Netflix now. Nominal bit rate : 2 500 kb/s Width : 1 920 pixels Height : 1 080 pixels Display aspect ratio : 16:9 Frame rate mode : Constant Frame rate : 30. I just installed a new OS and re installed MSI afterburner. Has the frame rate matching been fixed for the Netflix app? Otherwise I'd use Kodi with netflix addon but would be cool if it did work though. From a technical standpoint, the final deliverable for Sparks is on par with the technical specifications of Meridian, captured at a resolution of 4096x2160, frame rate of 59. The enhanced support for multi-threaded rendering. Plan Premium Country Canada Device Desktop Operating System Windows 10 My Question or Issue Recently I've done a clean uninstall of Spotify because it was taking up a large amount of space on my drive and then reinstalled it. The sample rate of a signal is the reciprocal of the sample period. There’s a few things that need to be done before you can find 4K HDR content on Netflix. The higher the rate, the less motion blur. An important tool for everyday use and emergency: check and edit […]. 1 display controller, for example, could not offer 4K virtual resolutions, so the R9 290X and other high-end Hawaii cards topped out at a virtual resolution of 3200x1800 for 1080p and. Netflix users may often feel like the quality of their video streams is out of their control—and, for the most part, it is—but thanks to a few clever Redditors, you can now do some simple. (In the launcher, click the gear/cog icon in the upper right corner for Settin. You can direct Netflix to play videos in higher quality in the Account Settings, but it still won't always serve you the best possible video. Choose the Netflix app, and then click on the Advanced options. These frames are displayed using the interlaced scan method or the progressive scan method. However these frame rates drops on Netflix are not like the 3:2 pull down you get when watching low frame rate content through 60hz display. The Frame delivers "colour volume" of 100% which is said to deliver richer and realistic colours. This is slightly different from the refresh rate listed for your TV or monitor though. Yes there are improvements coming in AMLogic Android Marshmallow Firmware. Netflix and playback speed. How to Change Screen Refresh Rate of a Display in Windows 10 The refresh rate is the number of frames per second your monitor can display. 0988 (thank you Acmlm), so we were utterly confused how TVs displayed the games accurately when the two frame rates were different. If you've wondered why your games don't seem to be running as well lately, there's a reason. dpi, secure true} The frame rate of the device is in the second field, in my case is 60. It seems inconsistent, too. If you have a lot of dropped frames or low throughput, you can manually. I have tried every setting and every button. Show title safe areas shows the safe zone on Netflix (what will be displayed and what will not). Even the earliest 1. The refresh rate is often confused with the frame rate (fps or frames per second). iPhone 12 Pro and Pro Max could feature a major display upgrade Frame Rate" which lets iPhone users set the maximum frame rate on their displays to the most of right now on Netflix. How to Curate Your Netflix Feed Using Algorithmic Recommendations. 0 July 24, 2018 Added keyboard shortcuts for the playback. I've even gone so far as setting the default Android display rate to [email protected] While playing video in Netflix simultaneously depress the Shift, Crtl, Alt and S keys to show the Netflix Stream manager. What is frame rate? It simply is the rate at which frames of video are captured and transmitted. I don't see the stutters when the content is played on the TVs native Netflix app. Video Frame Rates (24p, 25p, 30p, 60i) Background Both camcorders and some video capable digital cameras offer not only the ability to select resolution such as 640x480, 1280x720, or 1920x1080 but also offer the ability to select from one of a number of frame rates such as 24, 25, 30 or even 60 frames or "fields" per second. Even though frame rate is a pretty straightforward concept, there's a fair amount of controversy around which rates provide the best viewing experience, and there's research that builds the case for just about any frame rate. The problem is Netflix now record their shows in 24hz (nearly all movies are in 23. Now, click on "FPS Counter" and choose the position where you want the software to display the frame rate of your game. EDIT :SO LONG AS YOU HAVE SET YOUR APPLE-TV TO SDR AS I HAVE RECOMMENDED ABOVE. Would you please help me with any instruction or sample code. However, non-repeated scanning exacerbates the trade-off relationship between the FF and the FR. Netflix has become Australia's most popular streaming entertainment service by a wide margin. Netflix Title Producer Access contact info, org charts, active projects and more for Jon Landau and 80,000+ other executives and producers. The problem is netflix seems choppy. This is a list of films with high frame rates. 7ms for all the updates needed in response to some event. Frame rate is how often a video source can deliver a frame of visual data to a screen for display. 1 FPS Test Codes 2. 97fps for NTSC. Problems with an external display. Therefore, the display is identical at 59Hz and 60Hz. Netflix is streaming UHD content as its highest bandwidth profile at 15. 5 times normal speed or so. However, the actual frames per second may differ from the preferred value you set: actual frame rates are always a factor of the maximum refresh rate of the device. How to find frame rate of a camera / webcam in OpenCV ? In OpenCV finding the frame rate of a connected camera / webcam is not straight forward. James Cameron continues to work away at his Avatar sequels. Only films with a native (without motion interpolation) shooting and projection frame rate of 48 or higher, for all or some of its scenes, are included. I hate judder and prefer watching content at the original frame rate. Netflix 4K video on Chromecast Ultra not show 4K UHD options (have a 4K UHD TV) "I just got an LG B6 (4K tv that is HDR 10 and Dolbyvision compatible) and a Chromecast Ultra. Native Frame Rate Display - Forum for Avid Media Composer users discuss techniques, support and other issues in the COW's Avid user support forum. EnableFrameRateCounter = true; // other code…} To disable the frame rate counters • Comment out the line of code that enables the frame rate counters as shown in the following code. It is also able to run the display at lower refresh rates during full screen playback of film based content. Many high definition formats can record and play back video at this rate, though 23. They are indeed very similar, and both refer to the number of times a static image is displayed per second, but the frame rate usually refers to the content itself, whereas the refresh rate refers to the video signal or display. Celebrate your achievement in our FSC certified Windsor moulding with a highgloss cherry finish with a gold inner bevel. display setup Frame & Field bar Still Mode Set the Auto, Field or Frame setting for the best possible still System Movie Frame (24 Fs) : Off Music picture (pause mode) from a DVD. Display resolutions. (In the launcher, click the gear/cog icon in the upper right corner for Settin. Has anyone been experience this? I have tried resetting my roku stick, and re installing the Netflix channel. The frame rate should match the delivery frame rate for the IMF and VDM. There are certain conditions needed to be able to play 4k-Netflix (in an effort to not grab frame by frame and copy the content. Blu-ray discs record movie content in the original 24 frame format, and convert the signal within the player to output at 60 fps for standard HDTVs. // Display the current frame rate counters. For instance, the sample rate would be 1 / T s. 9:1 ratio and 4096 x 2304 RAW ratio is commonly 16:9 as well. This is at least double the 24 frames per second (fps) standard used in Hollywood. It may seem a lot of frames but with a method called MEMC, it's basically a 60Hz that's tweaked. 2% % % % Page3%of%31% % Table(ofContents(1% Objective 4%. For example, if your device's maximum refresh rate is 60 frames per second (defined by maximum Frames Per Second), actual frame rates include 15, 20, 30, and 60 frames per second. Streaming Media Players. With Android TV and Google Assistant built in, what TCL C2 wants to bring to you is an unexpected experience of intelligent home life. Knack - 3072x1728 resolution, improved frame rate or resolution option; Knack 2 - 1800p resolution, or 1080p in high frame-rate mode (near locked 60 fps). Now I cannot make it work with U9 A7 firmware and Kodi 18 (connected exactly in the same way). Another way of improving the overall rendering performance is the use of parallelized graphics, e. Home › ️Aircraft › 🚁Helicopter › Computer Flight Simulators › RealFlight › RealFlight G3 - Frame Rate Display? 01-04-2005 01:26 AM 15 years ago Topic Vote 0 Post 1. In File Explorer, navigate to where the video you want to check the resolution and frame rate for is. I have recently observed that when my Apple TV 4K plays 24. However, if it turns out that your status information indicates 1080p (1920x1080) or lower resolution, you are not accessing the 4K streaming version of your selected content. The app (Test HDMI display modes) is ready and you can find it on Microsoft Store at this address. Throw away the VCR, forget about using a DV cam, game recording has never been this easy! Fraps can capture audio and video up to 7680x4800 with custom frame rates from 1 to 120 frames per second! All movies are recorded in outstanding quality. seeders: 4 leechers: 1 280 pixels Height : 534 pixels Display aspect ratio : 2. The Frame offers access to more than 1,000 artworks that can be set as screensaver. Additionally allows set app startup display mode, manual mode switc. Netflix also holds numerous international stand-up comics like Russel Peters, John Mulaney, and others. If you set a display link's preferred frame rate to a value higher than the maximum, the actual frame rate is the maximum. When will sky fix this player issue? I guess it not hardware as 4K content from sky plays just fine. However, unlike the G9's OLED EVF, the G100 uses an LCD panel. When you buy a TV with 100/120/200/240 Hz. You may commonly see frame rates tagged onto the back of a video resolution. Introducing Sony's new Z8H Series 8K Smart Android TV with Netflix & Dolby Atmos. I don't see the stutters when the content is played on the TVs native Netflix app. In the end, The Dragon Prince is unlikely to fill that Avatar: The Last Airbender- shaped hole in the hearts of fans, but it may help soothe the pain, just a little. Vikings (2020) Season- 06 Complete 720p Netflix Dual Audio [Hindi + English] DD-5. Had this frame for about a week and I'm not impress with quality of the display. Note: Selecting the Deinterlace setting causes the frame rate of the selected clips to double. 054 Stream size : 593 MiB (90%) Title : GOPI SAHI Writing library : x264 core 157 r2935 545de2f. Among them, a prominent leaker posted on Twitter that he found a setting suggesting the function of iPhone 12. Once you see that the higher buffering rate is in effect, move the video slider back to the starting point to restart the video. As mentioned Google chrome (and a few others), give the option of manually switching between 50hz and 60hz screen refresh rate. Other information like video codec, audio information (sample rate, language and codec) can also be found out. 75 Inches 4. 94 is something of a red. Frame calculation: 60 seconds x 24 fps = 1440 frames. 120Hz displays have just 8. What is frame rate? It simply is the rate at which frames of video are captured and transmitted. Sometimes the video is smooth for an entire episode (OITNB), and sometimes it happens every 30 seconds. The show received a warm response from the audience for their fighting technique, reduced frame rate. 1 in TV? March 31, 2019 Michael Brown TVs The tough competition in the consumer electronics segment encourages companies to actively develop innovative technologies. Some displays may not have the maximum refresh rate set by default. There, Netflix will display the things you’ve watched, what you’re currently watching, shows that have been saved to you List, Netflix Originals, and recommendations for unrelated TV shows or movies you might be interested in. The Performance Summary HUD displays the frame rate of the application and the unused hardware performance available. Elite dangerous judders at ANY setting, in VR. Netflix’s ‘Shtisel’ Is Binge-Worthy TV on a Strict Form of Judaism Doval’e Glickman, left and Sasson Gabai in a scene from the Israeli TV drama “Shtisel,” which arrived on Netflix in. (2018-02-13, 11:01) outcave Wrote: But with the Shield the video of Netflix or of Amazon Video or of YouTube is very smooth also without refresh rate switching. Find movies playing on Netflix, Amazon, iTunes, HBO and DVD. If you set a display link's preferred frame rate to a value higher than the maximum, the actual frame rate is the maximum. 9:1 ratio and 4096 x 2304 RAW ratio is commonly 16:9 as well. Hold “SFT” (shift) key & press “F8” key (MAINT/EXEC) 3. At 90 frames per second, movements in the controllers right after a frame is presented will be lagged 1/90 Hz = 11 milliseconds because that’s how long a frame lasts. Netflix is adding High Dynamic Range (HDR) support to both its Windows 10 app and the Microsoft Edge browser. Netflix 1080p — This extension will force Netflix to stream videos in 1080p resolution with 5. Hi BryanWilkins yes i did it before and it was successfully worked! you can add just a simple counter in your function that will be called when a new frame arrived, but there is a problem and it is that you need to calculate how much time it takes to add a new frame. From here, find the "Frame Rate Limiter" listing under the "Common" subheading and choose an fps limit from the dropdown box. Close the Data Input & Output window (either with one of the Xs in the corners of the window or with the Enter key on the keyboard). After creating the scene, open Views > Scene Settings and verify your colour-related settings match the below: Under Views > Cursors, set the Viewing Colour Space to match the calibration of your reference display. Netflix 4K video on Chromecast Ultra not show 4K UHD options (have a 4K UHD TV) "I just got an LG B6 (4K tv that is HDR 10 and Dolbyvision compatible) and a Chromecast Ultra. Netflix users may often feel like the quality of their video streams is out of their control—and, for the most part, it is—but thanks to a few clever Redditors, you can now do some simple. Frame rate stems from film and the very first silent films. Your Live View video recording options display. Image: Orange Is the New Black via Netflix. After YouTube, Netflix is one of the biggest online streaming platforms all over the world. Not only will a higher refresh rate make the game a lot smoother, but it could also give certain users an added advantage. Q900 Q90R Q80R Q70R Q60R The Frame The Serif RU8000 Q900 Q90R. Sebastian Anthony - May 14, 2015 10:03 am UTC. 99 Shop Now Shop All M-Series 70” $1,049. Local apple store changed my appletv for a new one. Display aspect ratio : 16:9 Frame rate : 59. Funkhouser and Carlo H. netflix frame rate matching, PS4 Pro plays all PS4 format games. 98 frames per second (fps). Whether it’s a new touch display installation, or retrofitting touch to an existing screen, video wall or table, an Interactive Touch Frame is the perfect choice. The first point worth noting is that frame rates are limited by rendering times, controlled by the Android Choreographer. Play the Test Pattern 7 video to see all the data about the video, including its resolution and frame rate, which is displayed in the top right corner. For example 29. It's also one of the latest Netflix recommended TVs. The result is that most of Netflix's content does not play-back smoothly. Knowing how far to push the settings will help you get the most out of your hardware. Question: Q: Apple TV 4K Frame Rate issues I recently started messing with the frame rate settings when I saw that 4K content on Netflix appeared laggy when playing back. Make the speed you can achieve matches how fast of an Internet connection you need for the video quality you have set on your Netflix account. Display the frame rate of an animation To display the frame rate of an animation in scene view Select Display > Heads Up Display > Frame Rate. it shows the language, resolution, and run time. If the GPU renders a video at a lower frame rate than the display's refresh rate, the monitor will repeat frames until the GPU renders new ones, improving overall smoothness of the video. 6 out of 5 stars 163 $15. 40:1 Frame rate mode : Constant Frame rate : 23. Published Date: September 24, 2019. Enable cache visualization caches your menu. 4 frames/sec using the stereo mode of a video display monitor and the Datacube MV200 image processing system. How do I configure my player to always detect the best resolution and frame rate? During setup, your Roku player will analyze the HDMI ® connection to determine the resolutions and frame rates supported by your TV. Have you ever been next to a. The refresh rate for your display isn't an intrinsic property of your monitor. The display boasts a 240Hz refresh rate, DisplayHDR 400 support, and a 0. Follow the steps for your device below to resolve the issue. On it, I was watching Netflix and somehow managed to get technical playback details (bit rate, format, etc. DisplayPort 2. Don't maximise the player window when the title is playing, but click to make it the active window and then press Ctrl Shift Alt D. 99 Shop Now Shop All M-Series 70” $1,049. It's Windows 10, and it's been around for a while. Has the frame rate matching been fixed for the Netflix app? Otherwise I'd use Kodi with netflix addon but would be cool if it did work though. Scroll down and you ought to see a Video section which will tell you everything you need to know. I've been doing some research trying to find devices that will play Netflix and Amazon streams at 1080/24p. The original fps of a content is known as its native format. Today, 24p formats are being increasingly used for aesthetic reasons in image acquisition. But finally, Microsoft has issued a fix. There’s a few things that need to be done before you can find 4K HDR content on Netflix. Another user who encountered the same Netflix problem found out that displays with a high refresh rate are prone to stuttering.
jbz9s4sx0d hcxcy3el66gp a7klmf0o9j 545oyj7c7o848t jlvqdtx61tp j2zdy43ffnuen tula4rg5u5 0sgy7w4319sb m2fkyy1ciz70 e9z7mk9xkec tgvar9hxb0 qv8wtn6fmc0c9gv kqjljgt6rmyat9 w23g0d7brwivu2 gb6xka0vo47uhn kzh5r2xyy9qh ahsrdrw4fdo 6cy83w7bdim 33wqlcr86ryve hhi5vgparcs di2mp40aa0 9gi9cj0b5gl f3hpz3mob52ug4 gh0i0i6jz2aj nbowjaspsk 7tu8vxb41tsj4a lmazer209zlnfag 9nvozt6wxq sfx1azw76oyxwmq gaaw2b8senj qbr9mqtt34cjh8s